<?xml version="1.0" standalone="no"?>
<!DOCTYPE svg PUBLIC "-//W3C//DTD SVG 1.1//EN" "http://www.w3.org/Graphics/SVG/1.1/DTD/svg11.dtd" >
<svg xmlns="http://www.w3.org/2000/svg">
<metadata>
This is a custom SVG webfont generated by Font Squirrel.
Foundry URL : http://mplus-fonts.sourceforge.jp
</metadata>
<defs>
<font id="webfontIjI5mZqE" horiz-adv-x="500" >
<font-face units-per-em="1000" ascent="860" descent="-140" />
<missing-glyph horiz-adv-x="500" />
<glyph unicode=" " />
<glyph unicode="!" d="M165 730h170l-20 -495h-130zM170 0v150h160v-150h-160z" />
<glyph unicode="&#x22;" d="M270 780h160l-30 -320h-100zM70 780h160l-30 -320h-100z" />
<glyph unicode="#" d="M20 165v120h62l24 185h-51v120h67l18 140h135l-18 -140h45l18 140h135l-18 -140h43v-120h-59l-24 -185h48v-120h-64l-21 -165h-135l21 165h-45l-21 -165h-135l21 165h-46zM217 285h45l24 185h-45z" />
<glyph unicode="$" d="M357 397q55 -32 76.5 -74t21.5 -108q0 -190 -192 -199v-101h-110v112q-51 16 -88 43v140q38 -35 88 -55v191q-53 33 -75.5 75.5t-22.5 103.5q0 89 50 138.5t142 51.5v100h110v-112q42 -12 78 -33v-135q-32 25 -78 42v-180zM247 445v149q-54 -9 -54 -69q0 -55 54 -80z M263 295v-157q52 13 52 77q0 55 -52 80z" />
<glyph unicode="%" d="M40 310l420 220v-110l-420 -220v110zM160 740q70 0 110 -41t40 -119t-40 -119t-110 -41t-110 41t-40 119t40 119t110 41zM340 310q70 0 110 -41t40 -119t-40 -119t-110 -41t-110 41t-40 119t40 119t110 41zM160 518q38 0 38 62t-38 62t-38 -62t38 -62zM340 88q38 0 38 62 t-38 62t-38 -62t38 -62z" />
<glyph unicode="&#x26;" d="M235 615q-23 0 -36.5 -14.5t-13.5 -40.5q0 -18 7.5 -37.5t33.5 -65.5q35 30 47 52.5t12 50.5q0 26 -13.5 40.5t-36.5 14.5zM118 368q-47 77 -62.5 116t-15.5 76q0 80 51.5 130t138.5 50t141 -50.5t54 -129.5q0 -114 -130 -220l55 -94v2v132h125v-225q-16 -25 -41 -52 l61 -103h-150l-15 24q-66 -34 -130 -34q-88 0 -136.5 45.5t-48.5 134.5q0 99 103 198zM269 124l-77 125q-27 -37 -27 -74q0 -60 65 -60q20 0 39 9z" />
<glyph unicode="'" d="M160 780h180l-35 -320h-110z" />
<glyph unicode="(" d="M100 300q0 136 50 256.5t144 213.5h126q-196 -194 -196 -470t196 -470h-126q-94 93 -144 213.5t-50 256.5z" />
<glyph unicode=")" d="M400 300q0 -136 -50 -256.5t-144 -213.5h-126q196 194 196 470t-196 470h126q94 -93 144 -213.5t50 -256.5z" />
<glyph unicode="*" d="M193 750h114l-4 -144l136 48l35 -109l-138 -40l88 -115l-93 -67l-81 119l-81 -119l-93 67l88 115l-138 40l35 109l136 -48z" />
<glyph unicode="+" d="M315 545v-195h135v-110h-135v-195h-130v195h-135v110h135v195h130z" />
<glyph unicode="," d="M180 190h190l-130 -320h-120z" />
<glyph unicode="-" d="M90 240v110h320v-110h-320z" />
<glyph unicode="." d="M155 0v190h190v-190h-190z" />
<glyph unicode="/" d="M465 730l-310 -770h-120l310 770h120z" />
<glyph unicode="0" d="M250 740q73 0 117.5 -32.5t68.5 -116t24 -226.5t-24 -226.5t-68.5 -116t-117.5 -32.5t-117.5 32.5t-68.5 116t-24 226.5t24 226.5t68.5 116t117.5 32.5zM171 317l142 248q-9 34 -24.5 47t-38.5 13q-28 0 -44.5 -19.5t-26 -77.5t-9.5 -163q0 -33 1 -48zM183 179 q9 -41 25.5 -57.5t41.5 -16.5q28 0 44.5 19.5t26 77.5t9.5 163q0 47 -1 67z" />
<glyph unicode="1" d="M240 592l-2 1l-173 -91v128l175 100h140v-730h-140v592z" />
<glyph unicode="2" d="M220 122v-2h220v-120h-380v120q127 141 181 237t54 173q0 43 -21 66.5t-59 23.5q-31 0 -74 -22t-81 -58v130q78 70 185 70q90 0 140 -51t50 -149q0 -180 -215 -418z" />
<glyph unicode="3" d="M290 608v2h-230v120h385v-120l-170 -178v-2h10q79 0 122 -51.5t43 -153.5q0 -121 -54 -178t-166 -57q-51 0 -81.5 6.5t-78.5 28.5v130q80 -45 150 -45q46 0 68 27t22 88q0 58 -26 76.5t-114 18.5h-40v120z" />
<glyph unicode="4" d="M400 150v-150h-135v150h-245v120l230 460h150v-460h80v-120h-80zM265 270v255h-2l-127 -253v-2h129z" />
<glyph unicode="5" d="M202 455q36 19 82 19q161 0 161 -239q0 -245 -230 -245q-76 0 -150 35v130q80 -45 140 -45q51 0 75.5 29t24.5 96t-14.5 93t-46.5 26q-34 0 -64 -34h-110l10 410h345v-120h-220l-5 -155h2z" />
<glyph unicode="6" d="M295 625q-54 0 -76.5 -34.5t-28.5 -135.5h2q45 35 98 35q92 0 133.5 -54.5t41.5 -185.5q0 -141 -51 -200.5t-159 -59.5q-75 0 -119 28.5t-67.5 101t-23.5 200.5q0 162 25 254t75 129t135 37q66 0 135 -20v-125q-57 30 -120 30zM255 107q39 0 55.5 29.5t16.5 113.5 q0 79 -14 104.5t-53 25.5q-38 0 -56.5 -29.5t-18.5 -100.5q0 -81 17 -112t53 -31z" />
<glyph unicode="7" d="M55 730h390v-120q-113 -273 -200 -610h-146q92 325 216 608v2h-260v120z" />
<glyph unicode="8" d="M258 625q-41 0 -59.5 -20.5t-18.5 -64.5q0 -74 75 -105q33 16 51.5 43.5t18.5 61.5q0 40 -18 62.5t-49 22.5zM250 -10q-105 0 -162.5 52t-57.5 148q0 116 105 179v2q-42 31 -66 80t-24 104q0 87 53.5 136t151.5 49t151.5 -48.5t53.5 -136.5q0 -98 -100 -164v-2 q115 -62 115 -199q0 -96 -58 -148t-162 -52zM242 105q93 0 93 100q0 75 -103 115q-33 -17 -52.5 -48.5t-19.5 -66.5q0 -48 22.5 -74t59.5 -26z" />
<glyph unicode="9" d="M205 110q55 0 77 32.5t28 132.5h-2q-45 -35 -98 -35q-89 0 -132 57.5t-43 192.5q0 131 51 190.5t159 59.5q79 0 123 -27.5t65.5 -99.5t21.5 -203q0 -162 -25 -254t-75 -129t-135 -37q-66 0 -135 20v130q57 -30 120 -30zM245 623q-39 0 -55.5 -28t-16.5 -105 q0 -83 15.5 -111.5t51.5 -28.5q75 0 75 140q0 73 -17 103t-53 30z" />
<glyph unicode=":" d="M160 390v190h180v-190h-180zM160 0v190h180v-190h-180z" />
<glyph unicode=";" d="M170 190h190l-130 -320h-120zM170 390v190h180v-190h-180z" />
<glyph unicode="&#x3c;" d="M445 470l-320 -174v-2l320 -174v-120l-400 225v140l400 225v-120z" />
<glyph unicode="=" d="M50 125v110h400v-110h-400zM50 362v103h400v-103h-400z" />
<glyph unicode="&#x3e;" d="M55 470v120l400 -225v-140l-400 -225v120l320 174v2z" />
<glyph unicode="?" d="M460 575q0 -36 -12.5 -69t-25 -51t-38.5 -49q-25 -30 -38 -48.5t-27.5 -52.5t-18.5 -70h-130q0 49 17 94.5t32 66.5t44 57q21 25 30.5 38t19 33.5t9.5 40.5q0 58 -82 58t-180 -53v130q95 40 200 40q95 0 147.5 -44t52.5 -121zM155 0v150h160v-150h-160z" />
<glyph unicode="@" d="M285 635q-72 0 -108.5 -62.5t-36.5 -207.5q0 -265 160 -265q58 0 125 30v-115q-70 -25 -150 -25q-260 0 -260 375q0 194 64 284.5t191 90.5q99 0 152 -51.5t53 -148.5v-325q-28 -28 -76 -46.5t-94 -18.5q-69 0 -102 49t-33 166q0 114 31.5 164.5t93.5 50.5q36 0 68 -25h2 v15q0 26 -23.5 45.5t-56.5 19.5zM290 365q0 -72 8 -93.5t29 -21.5q20 0 28 18v147q0 41 -6 53t-25 12t-26.5 -22t-7.5 -93z" />
<glyph unicode="A" d="M249 620h-2l-55 -335h112zM323 170h-150l-28 -170h-140l165 730h160l165 -730h-144z" />
<glyph unicode="B" d="M190 445h15q59 0 85 20.5t26 64.5q0 49 -23 71t-73 22q-17 0 -30 -5v-173zM190 330v-218q20 -5 45 -5q51 0 75 27.5t24 90.5q0 57 -25.5 81t-88.5 24h-30zM470 210q0 -220 -240 -220q-93 0 -180 15v720q92 15 190 15q210 0 210 -185q0 -62 -32 -105t-83 -54v-2 q57 -10 96 -61.5t39 -122.5z" />
<glyph unicode="C" d="M30 365q0 195 64.5 285t190.5 90q80 0 150 -25v-115q-70 25 -125 25q-74 0 -109.5 -58.5t-35.5 -201.5q0 -260 150 -260q57 0 125 30v-120q-70 -25 -150 -25q-260 0 -260 375z" />
<glyph unicode="D" d="M344 365q0 142 -30 198.5t-94 56.5q-23 0 -40 -5v-500q17 -5 40 -5q63 0 93.5 55.5t30.5 199.5zM480 365q0 -144 -28.5 -226.5t-83.5 -115.5t-148 -33q-92 0 -180 15v720q88 15 180 15q141 0 200.5 -82t59.5 -293z" />
<glyph unicode="E" d="M210 610v-165h220v-115h-220v-210h230v-120h-370v730h370v-120h-230z" />
<glyph unicode="F" d="M220 330v-330h-140v730h360v-120h-220v-165h210v-115h-210z" />
<glyph unicode="G" d="M310 625q-82 0 -116 -55t-34 -205q0 -143 32 -201.5t93 -58.5q27 0 48 10v215h-98v115h230v-415q-83 -40 -180 -40q-260 0 -260 375q0 196 69.5 285.5t215.5 89.5q70 0 130 -25v-115q-72 25 -130 25z" />
<glyph unicode="H" d="M318 330h-140v-330h-138v730h138v-280h140v280h142v-730h-142v330z" />
<glyph unicode="I" d="M430 0h-360v115h108v500h-108v115h360v-115h-108v-500h108v-115z" />
<glyph unicode="J" d="M410 730v-515q0 -126 -48.5 -175.5t-166.5 -49.5q-86 0 -155 30v130q29 -18 68 -30t67 -12q50 0 71 26.5t21 95.5v385h-147v115h290z" />
<glyph unicode="K" d="M192 330h-2v-330h-140v730h140v-300h2l135 300h148l-160 -345l165 -385h-150z" />
<glyph unicode="L" d="M230 730v-610h210v-120h-350v730h140z" />
<glyph unicode="M" d="M338 500h-2l-38 -300h-100l-38 300h-2v-500h-133v730h167l59 -400h2l59 400h163v-730h-137v500z" />
<glyph unicode="N" d="M187 460h-2v-460h-140v730h147l125 -460h2v460h136v-730h-143z" />
<glyph unicode="O" d="M250 740q121 0 175.5 -84t54.5 -291t-54.5 -291t-175.5 -84t-175.5 84t-54.5 291t54.5 291t175.5 84zM250 108q52 0 75 53.5t23 203.5t-23 203.5t-75 53.5t-75 -53.5t-23 -203.5t23 -203.5t75 -53.5z" />
<glyph unicode="P" d="M334 503q0 120 -104 120q-23 0 -40 -5v-235q18 -5 40 -5q53 0 78.5 28t25.5 97zM470 503q0 -127 -57 -184.5t-173 -57.5q-26 0 -50 5v-266h-140v725q90 15 185 15q122 0 178.5 -56t56.5 -181z" />
<glyph unicode="Q" d="M250 740q121 0 175.5 -84t54.5 -291q0 -257 -92 -333v-2q39 -22 68.5 -74t33.5 -106h-145q-15 81 -36.5 110.5t-58.5 29.5q-121 0 -175.5 84t-54.5 291t54.5 291t175.5 84zM250 108q52 0 75 53.5t23 203.5t-23 203.5t-75 53.5t-75 -53.5t-23 -203.5t23 -203.5t75 -53.5z " />
<glyph unicode="R" d="M465 513q0 -151 -98 -199l-1 -2q27 -19 58 -118l61 -194h-145l-57 204q-12 43 -25.5 57.5t-42.5 14.5h-30v-276h-140v725q90 15 185 15q124 0 179.5 -53.5t55.5 -173.5zM185 393h30q64 0 89 24.5t25 95.5q0 58 -25.5 84t-78.5 26q-23 0 -40 -5v-225z" />
<glyph unicode="S" d="M440 575q-84 48 -165 48q-41 0 -65 -21t-24 -57q0 -71 69 -100q116 -48 160.5 -103t44.5 -142q0 -210 -225 -210q-100 0 -180 50v135q83 -68 173 -68q94 0 94 88q0 76 -77 110q-108 46 -151.5 99.5t-43.5 135.5q0 90 57 145t153 55q102 0 180 -35v-130z" />
<glyph unicode="T" d="M320 615v-615h-140v615h-145v115h430v-115h-145z" />
<glyph unicode="U" d="M250 -10q-112 0 -161 54t-49 186v500h142v-460q0 -101 14.5 -131.5t55.5 -30.5t55.5 30.5t14.5 131.5v460h138v-500q0 -132 -49 -186t-161 -54z" />
<glyph unicode="V" d="M253 110l92 620h140l-155 -730h-160l-155 730h144l92 -620h2z" />
<glyph unicode="W" d="M164 190h2l38 440h100l38 -440h2l15 540h126l-45 -730h-157l-34 420h-2l-34 -420h-153l-45 730h134z" />
<glyph unicode="X" d="M251 470h2l74 260h145l-132 -360l135 -370h-152l-74 270h-2l-74 -270h-148l135 370l-132 360h149z" />
<glyph unicode="Y" d="M251 415h2l84 315h148l-165 -455v-275h-140v275l-165 455h152z" />
<glyph unicode="Z" d="M290 613v2h-235v115h390v-115l-235 -498v-2h235v-115h-390v115z" />
<glyph unicode="[" d="M410 675h-170v-750h170v-95h-290v940h290v-95z" />
<glyph unicode="\" d="M35 730h120l310 -770h-120z" />
<glyph unicode="]" d="M90 675v95h290v-940h-290v95h170v750h-170z" />
<glyph unicode="^" d="M251 655h-2l-111 -375h-123l145 450h180l145 -450h-123z" />
<glyph unicode="_" d="M40 -170v88h420v-88h-420z" />
<glyph unicode="`" d="M90 810h190l100 -320h-120z" />
<glyph unicode="a" d="M65 495q39 14 95 24.5t90 10.5q111 0 155.5 -45t44.5 -160v-325h-127l-2 65h-2q-49 -75 -134 -75q-68 0 -106.5 42t-38.5 118q0 88 63.5 136.5t186.5 48.5h25v10q0 40 -16 56.5t-54 16.5q-32 0 -86.5 -11.5t-93.5 -26.5v115zM315 245h-25q-59 0 -89.5 -23t-30.5 -62 q0 -31 15 -48t40 -17q90 0 90 130v20z" />
<glyph unicode="b" d="M45 730h137v-275h2q49 75 116 75q83 0 129 -66.5t46 -203.5q0 -133 -47.5 -201.5t-127.5 -68.5q-35 0 -62.5 17.5t-56.5 62.5h-2l-2 -70h-132v730zM338 260q0 150 -78 150q-80 0 -80 -145v-10q0 -145 80 -145q35 0 56.5 36.5t21.5 113.5z" />
<glyph unicode="c" d="M305 420q-115 0 -115 -160q0 -163 120 -163q60 0 120 28v-110q-68 -25 -140 -25q-116 0 -178 67.5t-62 202.5t60 202.5t175 67.5q67 0 135 -25v-110q-61 25 -115 25z" />
<glyph unicode="d" d="M455 0h-132l-2 70h-2q-29 -45 -56.5 -62.5t-62.5 -17.5q-80 0 -127.5 68.5t-47.5 201.5q0 137 46 203.5t129 66.5q67 0 116 -75h2v275h137v-730zM162 260q0 -77 21.5 -113.5t56.5 -36.5q80 0 80 145v10q0 145 -80 145q-78 0 -78 -150z" />
<glyph unicode="e" d="M182 206q7 -62 33 -85.5t80 -23.5q52 0 135 28v-110q-84 -25 -155 -25q-112 0 -173.5 68t-61.5 202q0 270 220 270q200 0 200 -270q0 -31 -2 -54h-276zM181 310h142q-1 63 -15.5 88t-47.5 25q-41 0 -58 -23t-21 -90z" />
<glyph unicode="f" d="M60 391v109h100v45q0 104 40.5 149.5t129.5 45.5q56 0 110 -15v-110q-36 16 -80 16q-37 0 -50 -20.5t-13 -85.5v-25h143v-109h-143v-391h-137v391h-100z" />
<glyph unicode="g" d="M323 75h-2q-45 -75 -116 -75q-78 0 -126.5 66.5t-48.5 193.5q0 137 46 203.5t129 66.5q35 0 62.5 -17.5t56.5 -62.5h2l2 70h132v-505q0 -245 -240 -245q-81 0 -150 25v115q76 -33 145 -33q55 0 81.5 34t26.5 114v50zM167 260q0 -70 22 -105t56 -35q80 0 80 135v10 q0 145 -80 145q-78 0 -78 -150z" />
<glyph unicode="h" d="M50 730h137v-275h2q47 75 126 75t112 -47.5t33 -172.5v-310h-135v290q0 74 -12.5 98t-47.5 24t-56.5 -43.5t-21.5 -131.5v-237h-137v730z" />
<glyph unicode="i" d="M110 520h240v-413h100v-107h-370v107h130v306h-100v107zM190 630v130h160v-130h-160z" />
<glyph unicode="j" d="M225 -20v433h-110v107h250v-540q0 -68 -10.5 -106t-44 -63t-87.5 -33t-148 -8v109q39 0 60.5 0.5t41 5t27 9.5t13.5 18t7 27.5t1 40.5zM205 630v130h160v-130h-160z" />
<glyph unicode="k" d="M480 520l-185 -250l185 -270h-162l-131 224v-224h-137v730h137v-418l133 208h160z" />
<glyph unicode="l" d="M310 190q0 -68 9 -80.5t56 -12.5q31 0 75 6v-108q-44 -5 -100 -5q-111 0 -145.5 32.5t-34.5 137.5v463h-120v107h260v-540z" />
<glyph unicode="m" d="M360 0v340q0 40 -21 40q-8 0 -12.5 -5t-7 -22.5t-2.5 -52.5v-300h-130v340q0 40 -21 40q-8 0 -12.5 -5t-7 -22.5t-2.5 -52.5v-300h-134v520h120l2 -65h2q15 34 39.5 54.5t48.5 20.5q28 0 45 -16t32 -59h2q42 75 99 75q48 0 69 -36t21 -134v-360h-130z" />
<glyph unicode="n" d="M50 520h132l2 -70h2q49 80 129 80q79 0 112 -47.5t33 -172.5v-310h-135v290q0 74 -12.5 98t-47.5 24t-56.5 -43.5t-21.5 -131.5v-237h-137v520z" />
<glyph unicode="o" d="M250 530q220 0 220 -270t-220 -270t-220 270t220 270zM250 97q44 0 62 33.5t18 129.5t-18 129.5t-62 33.5t-62 -33.5t-18 -129.5t18 -129.5t62 -33.5z" />
<glyph unicode="p" d="M179 70h-2v-290h-137v740h132l2 -70h2q29 45 56.5 62.5t62.5 17.5q83 0 129 -66.5t46 -203.5q0 -133 -47.5 -201.5t-127.5 -68.5q-71 0 -116 80zM333 260q0 150 -78 150q-80 0 -80 -145v-10q0 -145 80 -145q35 0 56.5 36.5t21.5 113.5z" />
<glyph unicode="q" d="M321 70q-45 -80 -116 -80q-80 0 -127.5 68.5t-47.5 201.5q0 137 46 203.5t129 66.5q35 0 62.5 -17.5t56.5 -62.5h2l2 70h132v-740h-137v290h-2zM167 260q0 -77 21.5 -113.5t56.5 -36.5q80 0 80 145v10q0 145 -80 145q-78 0 -78 -150z" />
<glyph unicode="r" d="M375 416q-69 0 -111 -52t-42 -144v-220h-137v520h135v-85h2q36 53 70.5 74t82.5 21q36 0 70 -10v-115q-36 11 -70 11z" />
<glyph unicode="s" d="M265 418q-73 0 -73 -43q0 -22 14.5 -35t48.5 -20q109 -21 149.5 -60t40.5 -115q0 -74 -50.5 -114.5t-144.5 -40.5q-107 0 -190 35v120q87 -43 165 -43q45 0 64 11.5t19 36.5q0 22 -14 34t-54 21q-99 21 -142 62.5t-43 112.5t49 110.5t146 39.5q99 0 180 -30v-115 q-87 33 -165 33z" />
<glyph unicode="t" d="M445 500v-109h-158v-201q0 -61 10.5 -74.5t57.5 -13.5q43 0 80 17v-114q-50 -15 -110 -15q-98 0 -136.5 36.5t-38.5 133.5v231h-105v109h105v190h137v-190h158z" />
<glyph unicode="u" d="M445 0h-132l-2 70h-2q-50 -80 -124 -80q-77 0 -108.5 44.5t-31.5 165.5v320h135v-300q0 -70 11 -91t44 -21q73 0 73 175v237h137v-520z" />
<glyph unicode="v" d="M251 90h2l79 430h138l-130 -520h-180l-130 520h142z" />
<glyph unicode="w" d="M343 120h2l29 400h116l-70 -520h-137l-37 358h-2l-31 -358h-133l-70 520h124l29 -400h2l39 400h100z" />
<glyph unicode="x" d="M251 335h2l69 185h143l-125 -260l125 -260h-152l-64 180h-2l-64 -180h-148l125 260l-125 260h147z" />
<glyph unicode="y" d="M254 170h2l87 350h142l-237 -740h-138l85 230l-170 510h142z" />
<glyph unicode="z" d="M275 411h-210v109h370v-109l-210 -300v-2h210v-109h-370v109l210 300v2z" />
<glyph unicode="{" d="M187 301v-2q58 -24 85.5 -62t27.5 -100v-112q0 -73 12 -86.5t75 -13.5h53v-95h-107q-80 0 -116.5 37t-36.5 123v147q0 61 -22 88t-68 27h-40v96h40q46 0 68 27t22 88v147q0 86 36.5 123t116.5 37h107v-95h-53q-63 0 -75 -13.5t-12 -86.5v-112q0 -62 -27.5 -100t-85.5 -62 z" />
<glyph unicode="|" d="M188 -220v1030h124v-1030h-124z" />
<glyph unicode="}" d="M313 301q-58 24 -85.5 62t-27.5 100v112q0 73 -12 86.5t-75 13.5h-53v95h107q80 0 116.5 -37t36.5 -123v-147q0 -61 22 -88t68 -27h40v-96h-40q-46 0 -68 -27t-22 -88v-147q0 -86 -36.5 -123t-116.5 -37h-107v95h53q63 0 75 13.5t12 86.5v112q0 62 27.5 100t85.5 62v2z " />
<glyph unicode="~" d="M40 568v107q45 35 100 35q63 0 131 -50q49 -37 84 -37q49 0 105 51v-107q-45 -35 -100 -35q-63 0 -131 50q-49 37 -84 37q-49 0 -105 -51z" />
<glyph unicode="&#xa0;" />
<glyph unicode="&#xa5;" d="M251 415h2l84 315h148l-132 -365h97v-95h-130v-65h130v-95h-130v-110h-140v110h-130v95h130v65h-130v95h97l-132 365h152z" />
<glyph unicode="&#xad;" d="M90 240v110h320v-110h-320z" />
<glyph unicode="&#x2000;" horiz-adv-x="407" />
<glyph unicode="&#x2001;" horiz-adv-x="815" />
<glyph unicode="&#x2002;" horiz-adv-x="407" />
<glyph unicode="&#x2003;" horiz-adv-x="815" />
<glyph unicode="&#x2004;" horiz-adv-x="271" />
<glyph unicode="&#x2005;" horiz-adv-x="203" />
<glyph unicode="&#x2006;" horiz-adv-x="135" />
<glyph unicode="&#x2007;" horiz-adv-x="135" />
<glyph unicode="&#x2008;" horiz-adv-x="101" />
<glyph unicode="&#x2009;" horiz-adv-x="163" />
<glyph unicode="&#x200a;" horiz-adv-x="45" />
<glyph unicode="&#x2010;" d="M90 240v110h320v-110h-320z" />
<glyph unicode="&#x2011;" d="M90 240v110h320v-110h-320z" />
<glyph unicode="&#x2013;" d="M50 240v110h400v-110h-400z" />
<glyph unicode="&#x2014;" d="M10 240v110h480v-110h-480z" />
<glyph unicode="&#x2018;" d="M305 460h-190l130 320h120z" />
<glyph unicode="&#x2019;" d="M190 780h190l-130 -320h-120z" />
<glyph unicode="&#x201c;" d="M405 460h-170l130 320h100zM195 460h-170l130 320h100z" />
<glyph unicode="&#x201d;" d="M300 780h170l-130 -320h-100zM90 780h170l-130 -320h-100z" />
<glyph unicode="&#x2026;" horiz-adv-x="1000" d="M72 270v190h190v-190h-190zM405 270v190h190v-190h-190zM738 270v190h190v-190h-190z" />
<glyph unicode="&#x202f;" horiz-adv-x="163" />
<glyph unicode="&#x205f;" horiz-adv-x="203" />
<glyph unicode="&#x2122;" horiz-adv-x="1000" d="M838 500h-2l-38 -300h-100l-38 300h-2v-500h-133v730h167l59 -400h2l59 400h163v-730h-137v500zM320 615v-615h-140v615h-145v115h430v-115h-145z" />
</font>
</defs>
</svg>
